Tony Toni Tone Anniversary Mp3 Download

Posted By admin On 23/08/21

I just think this is one of the most beautiful songs ever made. The Outro is just genius. If I Had No Loot (04:01) 02. What Goes Around Comes Around (04:33) 03. My Ex-Girlfriend (04:52) 04. Tell Me Mama (04:17) 05. Leavin' (05:15) 06. Slow Wine (04:49) 07. Sil open font license explained. TITLE 'Anniversary' PERFORMER 'Tony Toni Tone' ISRC [email protected] INDEX 01 00:00:00 FILE '09 - Feels Good.wav' WAVE TRACK 09 AUDIO TITLE 'Feels Good' PERFORMER 'Tony Toni Tone' ISRC [email protected] INDEX 01 00:00:00 FILE '10 - Let's Get Down.wav' WAVE TRACK 10 AUDIO TITLE 'Let's Get Down' PERFORMER 'Tony Toni Tone' ISRC [email protected] INDEX 01 00:00:00.

  1. Cached
  2. Anniversary By Tony Tone Toni
  3. Anniversary Tony Toni Tone Free Mp3 Download

Tony! Toni! Tone! Anniversary (Full Extended Version)



Download 'Tony! Toni! Tone! Anniversary (Full Extended Version)'

Download video 'Tony! Toni! Tone! Anniversary (Full Extended Version)' directly from youtube. Just chose the format and click on the button 'Download'. After few moments will be generated link to download video and you can start downloading.

Do you want to download only audio in MP3 format?

To download only audio of 'Tony! Toni! Tone! Anniversary (Full Extended Version)' in MP3 format just chose MP3 format and wait until the link wil be generated.


Poslední stažené videa

Anniversary by tony tone toni

Košuľa Remix

Nigel Farage: Kdo jste, pane prezidente?

Gipsy Daxon Demo 16

Days of Elijah - Robin Mark

Večerníček - znělka

ROG PodcaSTR 29# Highlights Sportovní hry + Lelek

Phraze - Building Forces

Kopf und Schultern, Knie und Fuß - Kinderlieder zum Mitsingen Sing Kinderlieder

Tony Toni Tone Anniversary Mp3 Download

BANDA MS - ME VAS A EXTRAÑAR (VIDEO OFICIAL)

Urban Dance Vol.18 (Official Minimix)

Thomas Rhett - I Feel Good (Instant Grat Video) ft. LunchMoney Lewis

Kabát - MODERNÍ DĚVČE

Országos Cserkésznap 2014.

Země krásná neznámá 7 Země nepatří člověku Naopak, člověk patří Zemi

On My Mind (Ft. Pusha T) - Moxie Raia

Filip Motovunski & DJ Rahmanee Feat. Hornsman Coyote - Obidayah

Ako si zrýchliť YOU TUBE

FOX קיץ 2017 עם שלומית מלכה

Ants Go Marching Nursery Rhymes By LittleBabyBum!

Kevin Durants Top 10 Plays of His Career

Cached

2016 Zamagurský Super Cup DHZ Spišské Hanušovce ženy Prvý pokus

Finland Open 2015 Junior 2 Open Quickstep 1/4 h1

LJEM TVOJA -- Sanja POLDRUHI

Anniversary By Tony Tone Toni

30 Min Fat Burning & Full Body Toning Workout (Advanced ) – Bipasha Basu Fit & Fabulous You

Anniversary Tony Toni Tone Free Mp3 Download

  • Tony Toni Tone Anniversary

    320 Kbps18.05 MB7:4214853970
    Uploader: aimeedus

  • Tony! Toni! Toné! - Anniversary

    320 Kbps10.74 MB4:35240645
    Uploader: koollatter

  • Anniversary

    320 Kbps22.03 MB9:2416994531
    Uploader: Tony! Toni! Toné! - Topic

  • Tony! Toni! Tone! Anniversary (Full Extended Version)

    320 Kbps22.19 MB9:28661393
    Uploader: crystalclear161

  • Anniversary

    320 Kbps10.62 MB4:32104722
    Uploader: Tony! Toni! Toné! - Topic

  • Tony Toni Tone- Anniversary Lyrical Video

    320 Kbps10.35 MB4:251005919
    Uploader: SeeMeBeBrave

  • Tony! Toni! Toné! performing 'Anniversary' Live

    320 Kbps10.47 MB4:2851609
    Uploader: Concert Daily

  • Tony Toni Tone - Anniversary

    320 Kbps18.05 MB7:42237855
    Uploader: Frank Jo

  • Tony! Toni! Toné! - Anniversary

    320 Kbps10.74 MB4:3536207
    Uploader: aft3rTh0ught

  • Tony! Toni! Toné! - Anniversary (Instrumental Intro)

    320 Kbps13.01 MB5:3347275
    Uploader: 4PlayMusic Entertainment

  • “Anniversary” by Tony! Toni! Toné!

    320 Kbps10.94 MB4:401851
    Uploader: Jeanette Harris

  • Tony Toni Tone Anniversary

    320 Kbps21.99 MB9:23141422
    Uploader: DJ Steve Pressman

  • Tony Toni Toné - Let's Get Down (Official Video)

    320 Kbps12.03 MB5:0816282575
    Uploader: TonyToniToneVEVO

  • Tony Toni Tone, Anniversary

    320 Kbps13.67 MB5:50180894
    Uploader: Tracy A. Willis

  • Tony! Toni! Tone! - It Never Rains (In Southern California)

    320 Kbps10.12 MB4:1910783459
    Uploader: J M

  • Tony Toni tone - Anniversary (Slowed & Chopped By DJ Kreep)

    320 Kbps27.93 MB11:5511882
    Uploader: Kreep TV

  • Tony! Toni! Tone! - Anniversary (Slowed)

    320 Kbps22.54 MB9:371005
    Uploader: Rebirth Of Lean Picasso

  • Tony Toni Tone - Just Me and You (Extended Version)

    320 Kbps15.12 MB6:2718306074
    Uploader: BigPeter86 Real Music Channel

  • Tony! Toni! Toné! - Anniversary (Slowed + Reverb)

    320 Kbps26.21 MB11:11861
    Uploader: Trackstar601

  • Tony! Toni! Toné! 'Anniversary' (LYRICS)

    320 Kbps10.78 MB4:366922
    Uploader: Gemini0and0Aquarius